Salt 2010

Pogledaj prethodnu temu Pogledaj sledeću temu Ići dole

Salt 2010

Počalji  conja taj Ned Avg 01, 2010 12:33 pm

Salt 2010 CAM XviD-CLASSiFiED




Release Group: CLASSiFiED (P2P)
Release Name: Salt.2010.Cam.Xvid-CLASSiFiED
Release Date: July 31, 2010
Filename: Salt.2010.Cam.Xvid-CLASSiFiED.avi
Source: CAM
Size: 1.39 GB
Genre: Action | Thriller
Video: 720×288 | 25gps
Audio: English | MP3
Subtitles: None
Runtime: 1hr 30min
IMDB Rating: 6.8/10 (5,046 votes)
RT Critics: 6/10 (156 reviews)
Directed By: Phillip Noyce
Starring: Angelina Jolie, Liev Schreiber, Chiwetel Ejiofor, Andre Braugher
Release Description

A CIA agent goes on the run after a defector accuses her of being a Russian spy.




Kod:
http://rapidshare.com/files/410165851/Salt.Cam.Classified.part1.rar
http://rapidshare.com/files/410165860/Salt.Cam.Classified.part2.rar
http://rapidshare.com/files/410165859/Salt.Cam.Classified.part3.rar
http://rapidshare.com/files/410165864/Salt.Cam.Classified.part4.rar
http://rapidshare.com/files/410165877/Salt.Cam.Classified.part5.rar
http://rapidshare.com/files/410166000/Salt.Cam.Classified.part6.rar
http://rapidshare.com/files/410165999/Salt.Cam.Classified.part7.rar

_________________
avatar
conja
Admin

Broj poruka : 728
Datum upisa : 21.08.2009
Godina : 44
Lokacija : Paracin

http://www.conja_73.webs.com/

Nazad na vrh Ići dole

Salt 2010 DVDRip XviD

Počalji  conja taj Sub Okt 09, 2010 1:46 am

Salt 2010 DVDRip XviD





General
Format : AVI
Format/Info : Audio Video Interleave
File size : 700 MiB
Duration : 1h 35mn
Overall bit rate : 1 020 Kbps

Video
ID : 0
Format : MPEG-4 Visual
Format profile : Advanced Simple@L5
Format settings, BVOP : Yes
Format settings, QPel : No
Format settings, GMC : No warppoints
Format settings, Matrix : Default (MPEG)
Muxing mode : Packed bitstream
Codec ID : XVID
Codec ID/Hint : XviD
Duration : 1h 35mn
Bit rate : 846 Kbps
Width : 640 pixels
Height : 272 pixels
Display aspect ratio : 2.35:1
Frame rate : 25.000 fps
Color space : YUV
Chroma subsampling : 4:2:0
Bit depth : 8 bits
Scan type : Progressive
Bits/(Pixel*Frame) : 0.194
Stream size : 581 MiB (83%)
Writing library : XviD 1.2.1 (UTC 2008-12-04)

Audio
ID : 1
Format : MPEG Audio
Format version : Version 1
Format profile : Layer 3
Mode : Joint stereo
Mode extension : MS Stereo
Codec ID : 55
Codec ID/Hint : MP3
Duration : 1h 35mn
Bit rate mode : Variable
Bit rate : 161 Kbps
Nominal bit rate : 170 Kbps
Channel(s) : 2 channels
Sampling rate : 48.0 KHz
Stream size : 110 MiB (16%)
Alignment : Aligned on interleaves
Interleave, duration : 24 ms (0.60 video frame)
Interleave, preload duration : 507 ms
Writing library : LAME3.97






Kod:
http://rapidshare.com/files/418968930/Salt.2010...By.Dardann.part4.rar.html
http://rapidshare.com/files/418968938/Salt.2010...By.Dardann.part3.rar.html
http://rapidshare.com/files/418968951/Salt.2010...By.Dardann.part2.rar.html
http://rapidshare.com/files/418968955/Salt.2010...By.Dardann.part1.rar.html

_________________
avatar
conja
Admin

Broj poruka : 728
Datum upisa : 21.08.2009
Godina : 44
Lokacija : Paracin

http://www.conja_73.webs.com/

Nazad na vrh Ići dole

Pogledaj prethodnu temu Pogledaj sledeću temu Nazad na vrh

- Similar topics

 
Dozvole ovog foruma:
Ne možete odgovarati na teme u ovom forumu